Качество видео 720 вместо 1080 - PROVEGAS.RU: SONY VEGAS FORUM
Нажмите для перехода на сайт ProVegas.ru  

Вернуться   PROVEGAS.RU: SONY VEGAS FORUM > ПРОГРАММНОЕ ОБЕСПЕЧЕНИЕ > Sony Vegas > Игровое видео

Ответ
 
Опции темы Поиск в этой теме Опции просмотра
Старый 11.01.2019, 11:52   #1
Prokopich Меню пользователя
Стажер
 
Регистрация: 09.01.2019
Сообщений: 5
Рейтинг: 10
Prokopich с Первым уровенем доверия
По умолчанию Качество видео 720 вместо 1080

Здравствуйте! Такая проблема. Делаю ролик игровой в Сони Вегас Про 13.0. При рендеренге выставляю в настройках "Видео для ОС Win" - "HD 1080-60i". После заливаю на ютуб. А на ютубе максимальное разрешение 720, так еще и не во весь экран. В интернет, шарил-шарил, не нашел (

Вот ссылка на ролик
https://www.youtube.com/watch?v=wuwIJGE_nK0

Вот данные видео, которое залил на ютуб
General
Complete name : D:\Ролики\Опубликовать\Т67 Покатушки 2060 урона!.avi
Format : AVI
Format/Info : Audio Video Interleave
File size : 645 MiB
Duration : 8 min 12 s
Overall bit rate : 11.0 Mb/s
TCOD : 0
TCDO : 4928500000

Video
ID : 0
Format : AVC
Format/Info : Advanced Video Codec
Format profile : High@L4.2
Format settings : CABAC / 2 Ref Frames
Format settings, CABAC : Yes
Format settings, ReFrames : 2 frames
Codec ID : H264
Duration : 8 min 12 s
Bit rate : 9 301 kb/s
Width : 1 440 pixels
Height : 990 pixels
Display aspect ratio : 3:2
Frame rate : 60.000 FPS
Color space : YUV
Chroma subsampling : 4:2:0
Bit depth : 8 bits
Scan type : Progressive
Bits/(Pixel*Frame) : 0.109
Stream size : 546 MiB (85%)
Writing library : x264 core 152 r2851bm ba24899
Encoding settings : cabac=1 / ref=2 / deblock=1:0:0 / analyse=0x3:0x113 / me=hex / subme=4 / psy=1 / psy_rd=1.00:0.00 / mixed_ref=0 / me_range=16 / chroma_me=1 / trellis=1 / 8x8dct=1 / cqm=0 / deadzone=21,11 / fast_pskip=1 / chroma_qp_offset=0 / threads=6 / lookahead_threads=6 / sliced_threads=1 / slices=6 / nr=0 / decimate=1 / interlaced=0 / bluray_compat=0 / constrained_intra=0 / bframes=0 / weightp=1 / keyint=250 / keyint_min=25 / scenecut=40 / intra_refresh=0 / rc=crf / mbtree=0 / crf=24.0 / qcomp=0.60 / qpmin=0 / qpmax=69 / qpstep=4 / ip_ratio=1.40 / aq=1:1.00

Audio
ID : 1
Format : PCM
Format settings : Little / Signed
Codec ID : 1
Duration : 8 min 12 s
Bit rate mode : Constant
Bit rate : 1 536 kb/s
Channel(s) : 2 channels
Sampling rate : 48.0 kHz
Bit depth : 16 bits
Stream size : 90.2 MiB (14%)
Alignment : Aligned on interleaves
Interleave, duration : 250 ms (15.00 video frames)
Interleave, preload duration : 250 ms

Разрешение моего монитора 1440х990

ЦП AMD Ryzen 5 2600 Six-Core Processor 3.4 GHz
Видео карта GTX 1050Ti GDDR5 4 Gb

Запись видео делаю программой OBS. В настройках базовое и выходное разрешение ставлю 1440х990

Ну и в Сони Вегас в настройках при создании шаблона тоже ставлю 1440х990.

Битрейт 24000...

Как сделать, чтобы на ютубе была возможность выбрать качество 1080?
Prokopich вне форума   Ответить с цитированием
Старый 11.01.2019, 12:08   #2
jurisviii Меню пользователя
Самый научный сотрудник
 
Аватар для jurisviii
 
Регистрация: 09.05.2008
Сообщений: 9,408
Рейтинг: 642199
jurisviii с Максимальным уровнем доверияjurisviii с Максимальным уровнем доверияjurisviii с Максимальным уровнем доверияjurisviii с Максимальным уровнем доверияjurisviii с Максимальным уровнем доверияjurisviii с Максимальным уровнем доверияjurisviii с Максимальным уровнем доверияjurisviii с Максимальным уровнем доверияjurisviii с Максимальным уровнем доверияjurisviii с Максимальным уровнем доверияjurisviii с Максимальным уровнем доверия
По умолчанию

Цитата:
Разрешение моего монитора 1440х990
А вот дурацкий ютуб не имеет такого разрешения.
jurisviii вне форума   Ответить с цитированием
Старый 11.01.2019, 14:17   #3
Prokopich Меню пользователя
Стажер
 
Регистрация: 09.01.2019
Сообщений: 5
Рейтинг: 10
Prokopich с Первым уровенем доверия
По умолчанию

Ну хорошо. А что тогда делать? Какое разрешение ставить? Или еще что-то надо делать? Монитор менять?
Prokopich вне форума   Ответить с цитированием
Старый 11.01.2019, 16:03   #4
jurisviii Меню пользователя
Самый научный сотрудник
 
Аватар для jurisviii
 
Регистрация: 09.05.2008
Сообщений: 9,408
Рейтинг: 642199
jurisviii с Максимальным уровнем доверияjurisviii с Максимальным уровнем доверияjurisviii с Максимальным уровнем доверияjurisviii с Максимальным уровнем доверияjurisviii с Максимальным уровнем доверияjurisviii с Максимальным уровнем доверияjurisviii с Максимальным уровнем доверияjurisviii с Максимальным уровнем доверияjurisviii с Максимальным уровнем доверияjurisviii с Максимальным уровнем доверияjurisviii с Максимальным уровнем доверия
По умолчанию

Использовать рекомендаций ютуба или создавать свой собственный видео сервис с произвольными настройками..
jurisviii вне форума   Ответить с цитированием
Старый 12.01.2019, 12:54   #5
Prokopich Меню пользователя
Стажер
 
Регистрация: 09.01.2019
Сообщений: 5
Рейтинг: 10
Prokopich с Первым уровенем доверия
По умолчанию

Спасибо! )
Prokopich вне форума   Ответить с цитированием
Ответ

Опции темы Поиск в этой теме
Поиск в этой теме:

Расширенный поиск
Опции просмотра

Ваши права в разделе
Вы не можете создавать новые темы
Вы не можете отвечать в темах
Вы не можете прикреплять вложения
Вы не можете редактировать свои сообщения

BB коды Вкл.
Смайлы Вкл.
[IMG] код Вкл.
HTML код Выкл.

Быстрый переход


Sony Vegas: ProVegas.ru
© 2008-2014 При полном или частичном использовании материалов ссылка на ProVegas.ru обязательна.


Часовой пояс GMT +4, время: 13:53.



Яндекс.Метрика