PROVEGAS.RU: SONY VEGAS FORUM - Показать сообщение отдельно - Правила
Тема: Правила
Показать сообщение отдельно
Старый 27.07.2011, 14:17   #3
Martin Меню пользователя
Старший научный сотрудник
 
Регистрация: 17.03.2009
Сообщений: 1,205
Martin отключил(а) отображение уровня репутации
Exclamation

Если Вы хотите увеличить свои шансы на получение помощи на нашем форуме:

1. Аккуратно и подробно заполните в своем профиле данные о компьютере, операционной системе, буквенном индексе и битности используемой версии Sony Vegas (Vegas 10с-32, Vegas 10е-64, VegasPro 10е-64, SV-7e, Vegas Platinum-11 и тд). Пример:



Зачем это нужно ?


2. Укажите в своём вопросе:
а) параметры исходных видео и аудио материалов в текстовой форме: утиллита MediaInfo, режим Просмотр/Текст (на англ. View/Text)
Например:
General
Complete name : Е:\555.mp4
Format : MPEG-4
Format profile : Base Media / Version 2
Codec ID : mp42
File size : 12.4 MiB
Duration : 24s 768ms
Overall bit rate : 4 184 Kbps
Encoded date : UTC 2012-03-13 18:35:17
Tagged date : UTC 2012-03-13 18:35:17
©TIM : 00:00:00:00

Video
ID : 1
Format : AVC
Format/Info : Advanced Video Codec
Format profile : Main@L3.0
Format settings, CABAC : Yes
Format settings, ReFrames : 3 frames
Codec ID : avc1
Codec ID/Info : Advanced Video Coding
Duration : 24s 720ms
Bit rate mode : Variable
Bit rate : 3 997 Kbps
Width : 720 pixels
Height : 394 pixels
Display aspect ratio : 16:9
Frame rate mode : Constant
Frame rate : 25.000 fps
Standard : PAL
Color space : YUV
Chroma subsampling : 4:2:0
Bit depth : 8 bits
Scan type : Progressive
Bits/(Pixel*Frame) : 0.564
Stream size : 11.8 MiB (95%)
Language : English
Encoded date : UTC 2012-03-13 18:35:17
Tagged date : UTC 2012-03-13 18:35:17

Audio
ID : 2
Format : AAC
Format/Info : Advanced Audio Codec
Format version : Version 4
Format profile : LC
Codec ID : 40
Duration : 24s 768ms
Bit rate mode : Variable
Bit rate : 192 Kbps
Maximum bit rate : 281 Kbps
Channel(s) : 2 channels
Channel positions : Front: L R
Sampling rate : 48.0 KHz
Stream size : 573 KiB (5%)
Language : English
Encoded date : UTC 2012-03-13 18:35:17
Tagged date : UTC 2012-03-13 18:35:17

или
General
Complete name : Н:\реверс.avi
Format : AVI
Format/Info : Audio Video Interleave
Format_Commercial_IfAny : DV
File size : 13.8 MiB
Duration : 3s 760ms
Overall bit rate : 30.7 Mbps
Recorded date : 2011-07-25 21:34:59
TCOD : 0
TCDO : 37600000

Video
ID : 0
Format : DV
Codec ID : dvsd
Codec ID/Hint : Sony
Duration : 3s 760ms
Bit rate mode : Constant
Bit rate : 24.4 Mbps
Width : 720 pixels
Height : 576 pixels
Display aspect ratio : 16:9
Frame rate mode : Constant
Frame rate : 25.000 fps
Standard : PAL
Color space : YUV
Chroma subsampling : 4:2:0
Bit depth : 8 bits
Scan type : Interlaced
Bits/(Pixel*Frame) : 2.357
Stream size : 12.9 MiB (94%)

Audio
ID : 1
Format : PCM
Format settings, Endianness : Little
Format settings, Sign : Signed
Codec ID : 1
Codec ID/Hint : Microsoft
Duration : 3s 760ms
Bit rate mode : Constant
Bit rate : 1 536 Kbps
Channel(s) : 2 channels
Sampling rate : 48.0 KHz
Bit depth : 16 bits
Stream size : 705 KiB (5%)
Interleave, duration : 269 ms (6.71 video frames)
Interleave, preload duration : 280 ms

или
General
Complete name : H:\MOV063.MOD
Format : MPEG-PS
File size : 8.13 MiB
Duration : 7s 224ms
Overall bit rate : 9 444 Kbps

Video
ID : 224 (0xE0)
Format : MPEG Video
Format version : Version 2
Format profile : Main@Main
Format settings, BVOP : Yes
Format settings, Matrix : Default
Format settings, GOP : M=3, N=12
Duration : 7s 120ms
Bit rate mode : Variable
Bit rate : 9 000 Kbps
Nominal bit rate : 9 510 Kbps
Width : 704 pixels
Height : 576 pixels
Display aspect ratio : 16:9
Frame rate : 25.000 fps
Standard : PAL
Color space : YUV
Chroma subsampling : 4:2:0
Bit depth : 8 bits
Scan type : Interlaced
Scan order : Top Field First
Bits/(Pixel*Frame) : 0.888
Stream size : 7.64 MiB (94%)

Audio
ID : 192 (0xC0)
Format : MPEG Audio
Format version : Version 1
Format profile : Layer 2
Duration : 7s 224ms
Bit rate mode : Constant
Bit rate : 256 Kbps
Channel(s) : 2 channels
Sampling rate : 48.0 KHz
Video delay : -80ms
Stream size : 226 KiB (3%)

Menu
и тд и тп

b) приложите скрин настроек своего проекта:




3.
Чем сделать скриншот

Как сделать снапшот

Куда залить

Как оптимизироватькартинку на radikal.ru (Устарело)


4. Подробно сформулируйте Ваш вопрос (опишите возникшую проблему), приведите содержание сообщения об ошибке, при необходимости сделайте скриншот настроек просчета (рендера).


5. Огласите список плагинов, задействованных в проекте (в первую очередь сторонних)


6. Укажите целевое назначение готовой продукции (интернет, изготовление DVD, домашнее видео ориентированное для просмотра на ... (компьютере, телевизоре), и т.д.)


7. При необходимости (если попросят, или сами посчитаете нужным) залейте несколько секунд проблемного видео на какой либо бесплатный обменник типа narod, ifolder, depositfiles, rapidshare или аналогичный


8. Проявляйте такт и терпение. Здесь тоже живые люди и все мы помогаем друг другу на добровольных началах

.
Martin вне форума   Ответить с цитированием